Torrent-Polska

EN DE Witamy Guest (Zaloguj) Strona Główna Torrenty Extra Statystyki RSS Forum
User: Hasło:
Stwórz konto Odzyskiwanie hasła

Menu Główne
Strona Główna
Premiery
Extra Statystyki
Forum
Zaloguj
Kody dostepu SMS
Wolne datki bank

Kategorie
Seriale :
 » Seriale Polskie2381  
 » Seriale Zagraniczne13093  
Anime :
 » Anime PL190  
 » Anime15340  
 » Bajki1159  
Filmy :
 » Filmy DVD-R2268  
 » Filmy VCD8  
 » Filmy SVCD251  
 » Filmy RMVB9882  
 » Filmy X2642883  
 » Filmy HD-DVD / BluRay737  
 » Filmy DivX / XviD53643  
 » Filmy Dokumentalne2420  
 » Filmy 3D327  
Muzyka :
 » Muzyka Polska1392  
 » Muzyka Zagraniczna29845  
 » Soundtracki243  
 » Teledyski & Koncerty3509  
 » Muzyka - Moderacja9365  
Gry :
 » Gry PC13816  
 » Gry PS2/PS31108  
 » Gry Xbox/Xbox3601426  
 » Gry - Inne Konsole1890  
GSM/PDA :
 » Tapety GSM/PDA241  
 » Programy GSM/PDA482  
 » Gry GSM/PDA381  
 » Dzwonki GSM/PDA369  
 » Filmy GSM/PDA300  
Książki/Czasopisma :
 » E-Booki3400  
 » Audio Booki1272  
 » Czasopisma1017  
 » Poradniki484  
 » Komiksy363  
 » Manga37  
 » Podręczniki92  
 » Książki Naukowe 258  
Inne :
 » Śmieszne86  
 » Tapety1023  
 » Inne - Pozostałe476  
 » Sport1081  
 » Inne - Moderacja1026  
Programy :
 » Programy Linux262  
 » Programy Macintosh38  
 » Programy Windows7830  
 » Programy - Moderacja4185  
ADULT - Od lat 18 !!! :
 » Adult - Hentai165  
 » Adult - Czasopisma158  
 » Adult - Zdjęcia2555  
 » Adult - Filmy12005  
 » Adult - Gry15  
 » Adult - Moderacja9209  
Pozostałe bez kategorii :)1256 

Filmy X264

Kategoria: Filmy X264
Wystawił:  Alex
Akceptował: 
Data: 19/10/2013
Rozmiar: 1.44 GB
Seedów: 0
Leecherów: 0
Pobrano: ---

Plik Torrent
Ekipa TPi przedstawia:

Linia życia - Flatliners (1990) [DVDRip x264 AC3][Hun][Lektor PL][Alex] [Ekipa TPi]

----------------------------------------------------

gatunek: Thriller, Sci-Fi
produkcja: USA
premiera: 10 sierpnia 1990 (świat)
reżyseria: Joel Schumacher
scenariusz: Peter Filardi

Filmweb: 7,2/10 z 10.467 głosów
http://www.filmweb.pl/film/Linia+%C5%BCycia-1990-7352

IMDB: 6,5/10 from 48 505 users
http://www.imdb.com/title/tt0099582/?ref_=nv_sr_1

Opis:

Studenci medycyny chcą się dowiedzieć, co czuje człowiek w chwili śmierci klinicznej.

Storyline:

Medical students begin to explore the realm of near death experiences, hoping for insights. Each has their heart stopped and is revived. They begin having flashes of walking nightmares from their childhood, reflecting sins they committed or had committed against them. The experiences continue to intensify, and they begin to be physically beaten by their visions as they try and go deeper into the death experience to find a cure.

Cast:

Kiefer Sutherland ... Nelson
Julia Roberts ... Dr. Rachel Mannus
Kevin Bacon ... David Labraccio
William Baldwin ... Dr. Joe Hurley
Oliver Platt         ... Randy Steckle
Kimberly Scott ... Winnie Hicks
Joshua Rudoy ... Billy Mahoney
Benjamin Mouton ... Rachel's Father
Aeryk Egan         ... Young Nelson
Kesha Reed         ... Young Winnie
Hope Davis     ... Anne Coldren
Jim Ortlieb     ... Uncle Dave
John Duda         ... Young David (as John Joseph Duda)
Megan Stewart ... Playground Kid
Tressa Thomas ... Playground Kid

Info:

Format                                   : Matroska
Format version                           : Version 4 / Version 2
File size                                : 1.44 GiB
Duration                                 : 1h 49mn
Overall bit rate                         : 1 885 Kbps
Movie name                               : Linia życia (1990) - Dla was od AT-Team
Encoded date                             : UTC 2013-10-19 09:03:02
Writing application                      : mkvmerge v6.3.0 ('You can't stop me!') built on Jun 27 2013 22:06:07
Writing library                          : libebml v1.3.0 + libmatroska v1.4.0

Video
ID                                       : 1
Format                                   : AVC
Format/Info                              : Advanced Video Codec
Format profile                           : High@L3.0
Format settings, CABAC                   : Yes
Format settings, ReFrames                : 4 frames
Codec ID                                 : V_MPEG4/ISO/AVC
Duration                                 : 1h 49mn
Bit rate                                 : 1 500 Kbps
Width                                    : 720 pixels
Height                                   : 304 pixels
Display aspect ratio                     : 2.35:1
Frame rate mode                          : Constant
Frame rate                               : 25.000 fps
Color space                              : YUV
Chroma subsampling                       : 4:2:0
Bit depth                                : 8 bits
Scan type                                : Progressive
Bits/(Pixel*Frame)                       : 0.274
Stream size                              : 1.12 GiB (78%)
Title                                    : AT-Team
Writing library                          : x264 core 112
Encoding settings                        : cabac=1 / ref=3 / deblock=1:-1:-1 / analyse=0x3:0x113 / me=hex / subme=7 / psy=1 / psy_rd=1.00:0.15 / mixed_ref=1 / me_range=16 / chroma_me=1 / trellis=1 / 8x8dct=1 / cqm=0 / deadzone=21,11 / fast_pskip=1 / chroma_qp_offset=-3 / threads=12 / sliced_threads=0 / nr=0 / decimate=1 / interlaced=0 / constrained_intra=0 / bframes=3 / b_pyramid=2 / b_adapt=2 / b_bias=0 / direct=1 / weightb=1 / open_gop=0 / weightp=2 / keyint=250 / keyint_min=25 / scenecut=40 / intra_refresh=0 / rc_lookahead=50 / rc=2pass / mbtree=1 / bitrate=1500 / ratetol=1.0 / qcomp=0.60 / qpmin=3 / qpmax=51 / qpstep=4 / cplxblur=20.0 / qblur=0.5 / ip_ratio=1.40 / aq=1:1.00
Language                                 : English
Default                                  : Yes
Forced                                   : No
Color primaries                          : BT.601 NTSC
Transfer characteristics                 : BT.709
Matrix coefficients                      : BT.601

Audio #1
ID                                       : 2
Format                                   : AC-3
Format/Info                              : Audio Coding 3
Mode extension                           : CM (complete main)
Format settings, Endianness              : Big
Codec ID                                 : A_AC3
Duration                                 : 1h 49mn
Bit rate mode                            : Constant
Bit rate                                 : 192 Kbps
Channel count                            : 2 channels
Channel positions                        : Front: L R
Sampling rate                            : 48.0 KHz
Bit depth                                : 16 bits
Compression mode                         : Lossy
Stream size                              : 150 MiB (10%)
Title                                    : AT-Team
Language                                 : Hungarian
Default                                  : No
Forced                                   : No

Audio #2
ID                                       : 3
Format                                   : AC-3
Format/Info                              : Audio Coding 3
Mode extension                           : CM (complete main)
Format settings, Endianness              : Big
Codec ID                                 : A_AC3
Duration                                 : 1h 49mn
Bit rate mode                            : Constant
Bit rate                                 : 192 Kbps
Channel count                            : 2 channels
Channel positions                        : Front: L R
Sampling rate                            : 48.0 KHz
Bit depth                                : 16 bits
Compression mode                         : Lossy
Stream size                              : 150 MiB (10%)
Title                                    : AT-Team
Language                                 : Polish
Default                                  : Yes
Forced                                   : No

Screen:







Trailer:
[video=http://www.youtube.com/watch?v=nnAzOxwXuSs]

----------------------------------------------------
Torrent - Polska . info [Ekipa TPi]
Poleca:
----------------------------------------------------

The Soldier. Cudza wojna - The Soldier. Unter falscher Flagge (2014) [DVDrip.Xvid] [Napisy PL]
VA - Turbo - In The Court Of The Lizard (2014) [mp3@320kbps]
VA - Voices Of Destiny - Crisis Cult (2014) [mp3@320kbps]
Czas Honoru - Powstanie [S07E10] [WEB-DL] [XviD-YL4] [PL]
Gadźo (2014) [DVBrip.Xvid] [Napisy PL]
VMware Workstation 10.0.4 Build 2249910 [ENG] [Serial] [AT-TEAM]
Forever [S01E03] [480p] [WEB-DL] [AC3] [XviD-Ralf] [Lektor PL]
Udając gliniarzy - Lets Be Cops (2014) [BRRip] [XviD-KiT] [ENG] [Napisy PL]
Udając gliniarzy - Let\'s Be Cops *2014* [480p.BRRip.XviD.AC3-azjatycki] [5:1] [Napisy PL] [AT-TEAM]
Udając gliniarzy - Lets Be Cops *2014* [BRRip.XviD.AC3-KiT] [Napisy PL] ...
Szczegóły torrenta
Info Hash
fec150ccc5bd9559dc1c14b3948bf16901d0eacd
Tracker
http://announce.torrentsmd.com:6969/announce [EXTERNAL]
Multi-Tracker
Uaktualnienie
19/10/2013 10:36:24 (Jeżeli nie widac seeda kliknij na [uaktualnij] by odswieżyć statystyki).
Pokaż/Ukryj Pliki:
11 pliki
Ocena:
N/A
Komentarze


Brak komentarzy...

Zaden z widocznych tutaj plikow nie znajduje sie na serwerze. Linki udostepnione sa przez i za zgoda uzytkownikow. Administrator serwisu www.torrent-polska.info jak i wlasciciel serwera nie moze byc pociagany do odpowiedzialnosci karnej za to co uzytkownicy nadsylaja, czy tez za kazda inna dzialalnosc uzytkownikow. Nie mozesz uzywac tego serwisu do rozpowszechniania lub sciagania materialow do ktorych nie masz odpowiednich praw lub licencji. Uzytkownicy tej strony odpowiedzialni sa za przestrzeganie tych warunkow. Szczegoly obowiazkow uzytkownikow znajduja sie na forum.