Torrent-Polska

EN DE Witamy Guest (Zaloguj) Strona Główna Torrenty Extra Statystyki RSS Forum
User: Hasło:
Stwórz konto Odzyskiwanie hasła

Menu Główne
Strona Główna
Premiery
Extra Statystyki
Forum
Zaloguj
Kody dostepu SMS
Wolne datki bank

Kategorie
Seriale :
 » Seriale Polskie2328  
 » Seriale Zagraniczne12963  
Anime :
 » Anime PL188  
 » Anime15340  
 » Bajki1154  
Filmy :
 » Filmy DVD-R2268  
 » Filmy VCD8  
 » Filmy SVCD251  
 » Filmy RMVB9863  
 » Filmy X2642767  
 » Filmy HD-DVD / BluRay729  
 » Filmy DivX / XviD52721  
 » Filmy Dokumentalne2411  
 » Filmy 3D313  
Muzyka :
 » Muzyka Polska1378  
 » Muzyka Zagraniczna29785  
 » Soundtracki243  
 » Teledyski & Koncerty3505  
 » Muzyka - Moderacja9365  
Gry :
 » Gry PC13746  
 » Gry PS2/PS31106  
 » Gry Xbox/Xbox3601426  
 » Gry - Inne Konsole1890  
GSM/PDA :
 » Tapety GSM/PDA241  
 » Programy GSM/PDA482  
 » Gry GSM/PDA381  
 » Dzwonki GSM/PDA369  
 » Filmy GSM/PDA300  
Książki/Czasopisma :
 » E-Booki3363  
 » Audio Booki1267  
 » Czasopisma986  
 » Poradniki453  
 » Komiksy363  
 » Manga37  
 » Podręczniki91  
 » Książki Naukowe 251  
Inne :
 » Śmieszne85  
 » Tapety1023  
 » Inne - Pozostałe474  
 » Sport1085  
 » Inne - Moderacja1026  
Programy :
 » Programy Linux262  
 » Programy Macintosh38  
 » Programy Windows7796  
 » Programy - Moderacja4185  
ADULT - Od lat 18 !!! :
 » Adult - Hentai165  
 » Adult - Czasopisma153  
 » Adult - Zdjęcia2554  
 » Adult - Filmy11931  
 » Adult - Gry15  
 » Adult - Moderacja9209  
Pozostałe bez kategorii :)1256 

Filmy X264

Kategoria: Filmy X264
Wystawił:  Alex
Akceptował: 
Data: 27/11/2013
Rozmiar: 2.65 GB
Seedów: 5
Leecherów: 4
Pobrano: 4

Plik Torrent
Ekipa TPi przedstawia:

To już jest koniec - This Is the End *2013* [720p.BDRip.x264.AC3-Seed][ENG][Lektor PL] [Ekipa TPi]

----------------------------------------------------

gatunek: Fantasy, Komedia
produkcja: USA
premiera: 13 września 2013 (Polska) 12 czerwca 2013 (świat)
reżyseria: Evan GoldbergSeth Rogen
scenariusz: Evan GoldbergSeth Rogen

Filmweb: 5,7/10
http://www.filmweb.pl/film/To+ju%C5%BC+jest+koniec-2013-644737

IMDB: Ratings: 7,0/10 from 133 962 users
http://www.imdb.com/title/tt1245492/?ref_=nv_sr_1

Opis:

"To już jest koniec" opowiada o grupie sześciu przyjaciół,
którzy zostają uwięzieni w jednym z domów po serii apokaliptycznych zdarzeń niszczących Miasto Aniołów.
Wkrótce okazuje się, że świat dobiega końca. Tymczasem przyjaciele opuszczają dom,
stawiając czoła przeznaczeniu i poznając prawdziwe znaczenie przyjaźni.

Storyline:

All Jay Baruchel expected coming to LA was a fun time with Seth Rogen
with all the wild partying to have both by themselves and at James Franco's housewarming party.
Suddenly, the Rapture hits and the Biblical Apocalypse has begun.
Now, Jay and Seth are desperately sheltering in James' house for rescue along with a few other friends.
Together, they must band together to attempt to survive the end of the world,
only for Jay to find that they are all too dumb and superficial to do it until they discover the only way out.

Stars:

James Franco ... James Franco
Jonah Hill ... Jonah Hill
Seth Rogen ... Seth Rogen
Jay Baruchel ... Jay Baruchel
Danny McBride ... Danny McBride
Craig Robinson ... Craig Robinson
Michael Cera ... Michael Cera
Emma Watson ... Emma Watson
Mindy Kaling ... Mindy Kaling
David Krumholtz ... David Krumholtz
Christopher Mintz-Plasse ... Christopher Mintz-Plasse
Rihanna ... Rihanna
Martin Starr ... Martin Starr
Paul Rudd ... Paul Rudd
Channing Tatum ... Channing Tatum

Info:

Source: Bluray disc
Language: English, Polish Lektor


Format                                   : Matroska
Format version                           : Version 4 / Version 2
File size                                : 2.65 GiB
Duration                                 : 1h 46mn
Overall bit rate                         : 3 559 Kbps
Movie name                               : This Is the End 2013 [720p.BDRip.x264.AC3][ENG][Lektor PL][AT-TEAM]
Encoded date                             : UTC 2013-11-27 00:26:18
Writing application                      : mkvmerge v6.5.0 ('Isn't she lovely') built on Oct 20 2013 12:50:05
Writing library                          : libebml v1.3.0 + libmatroska v1.4.1

Video
ID                                       : 1
Format                                   : AVC
Format/Info                              : Advanced Video Codec
Format profile                           : High@L4.1
Format settings, CABAC                   : Yes
Format settings, ReFrames                : 5 frames
Codec ID                                 : V_MPEG4/ISO/AVC
Duration                                 : 1h 46mn
Bit rate                                 : 2 950 Kbps
Width                                    : 1 280 pixels
Height                                   : 536 pixels
Display aspect ratio                     : 2.40:1
Frame rate mode                          : Constant
Frame rate                               : 23.976 fps
Color space                              : YUV
Chroma subsampling                       : 4:2:0
Bit depth                                : 8 bits
Scan type                                : Progressive
Bits/(Pixel*Frame)                       : 0.179
Stream size                              : 2.12 GiB (80%)
Title                                    : AT-TEAM
Writing library                          : x264 core 135 r2345 f0c1c53
Language                                 : English
Default                                  : Yes
Forced                                   : No

Audio
ID                                       : 2
Format                                   : AC-3
Format/Info                              : Audio Coding 3
Mode extension                           : CM (complete main)
Format settings, Endianness              : Big
Codec ID                                 : A_AC3
Duration                                 : 1h 46mn
Bit rate mode                            : Constant
Bit rate                                 : 640 Kbps
Channel(s)                               : 6 channels
Channel positions                        : Front: L C R, Side: L R, LFE
Sampling rate                            : 48.0 KHz
Bit depth                                : 16 bits
Compression mode                         : Lossy
Stream size                              : 488 MiB (18%)
Title                                    : AT-TEAM
Language                                 : Polish
Default                                  : Yes
Forced                                   : No

Screen's:






----------------------------------------------------
Torrent - Polska . info [Ekipa TPi]
Poleca:
----------------------------------------------------

Colin McRae Rally: Remastered *2014* [SKIDROW] [ENG] [.iso]
Droga do zapomnienia - The Railway Man (2013) [BRRip] [XviD-BiDA] [Lektor PL]
Kapitan Ameryka: Zimowy żołnierz - Captain America: The Winter Soldier (2014) [MD] [DVDRip] [XviD-BiDA] [Dubbing PL-KINO]
Kapitan Ameryka: Zimowy żołnierz - Captain America: The Winter Soldier (2014) [DVDRip] [XviD-BiDA] [ENG] [Napisy PL]
Ocalony - Lone Survivor (2013) [BRRip] [XviD-BiDA] [Lektor PL]
Generacja hmm - Generation Um (2012) [BRRip] [XviD-BiDA] [Lektor PL]
Appleseed Alpha (2014) [BRRip] [XviD-K12] [ENG] [Napisy PL]
Witaj w klubie - Dallas Buyers Club (2013) [BRRip] [XViD-MiNS] [Lektor PL]
Thor: Mroczny Świat - Thor: The Dark World (2013) [BRRip] [XviD-BiDA] [Lektor PL]
Kobieta w ukryciu - The Invisible Woman (2013) [BRRip] [XViD-MiNS] [Lektor PL]...
Szczegóły torrenta
Info Hash
a692e3bf429cff2d2e1d749d60d738c2bbcdb681
Tracker
http://94.228.192.98/announce [EXTERNAL]
Multi-Tracker
Uaktualnienie
17/06/2014 20:23:00 (Jeżeli nie widac seeda kliknij na [uaktualnij] by odswieżyć statystyki).
Pokaż/Ukryj Pliki:
12 pliki
Ocena:
N/A
Komentarze


Brak komentarzy...

Zaden z widocznych tutaj plikow nie znajduje sie na serwerze. Linki udostepnione sa przez i za zgoda uzytkownikow. Administrator serwisu www.torrent-polska.info jak i wlasciciel serwera nie moze byc pociagany do odpowiedzialnosci karnej za to co uzytkownicy nadsylaja, czy tez za kazda inna dzialalnosc uzytkownikow. Nie mozesz uzywac tego serwisu do rozpowszechniania lub sciagania materialow do ktorych nie masz odpowiednich praw lub licencji. Uzytkownicy tej strony odpowiedzialni sa za przestrzeganie tych warunkow. Szczegoly obowiazkow uzytkownikow znajduja sie na forum.